注册 登录  
 加关注
   显示下一条  |  关闭
温馨提示!由于新浪微博认证机制调整,您的新浪微博帐号绑定已过期,请重新绑定!立即重新绑定新浪微博》  |  关闭

FOREVERLOVE

 
 
 

日志

 
 

[EMULE][新世紀エヴァンゲリオン_OP][BDRIP][192x1080_X264_AAC][残酷な天使のテ-ゼ](高桥洋子)  

2010-10-19 19:18:46|  分类: AMV/MAD |  标签: |举报 |字号 订阅

  下载LOFTER 我的照片书  |
[EMULE][新世紀エヴァンゲリオン_OP][DVDRIP][720x480_X264_AAC][残酷な天使のテ-ゼ](高桥洋子) - wayuf - FOREVERLOVE

作品名称:[Anime&Game.MTV][新世紀エヴァンゲリオン][BDRIP][1920x1080_X264_AAC][残酷な天使のテ-ゼ][C59CAF3D].mp4

动画名称:新世紀エヴァンゲリオン

片源:BDRIP(CHD版)

时间:04:05

尺寸:720x480(4:3)

制作时间:2010年10月

歌曲名:残酷な天使のテ-ゼ

演唱者:高桥洋子

EVA的加上这首其实已经做完了,这首是最近做的一首,体积较大,趁现在电费还不限的时候先挂上去 - -

因为是新作,效果应该可以,玩BD特效,伤硬盘,杀内存,咱编辑得动你播放不动就没办法了,不过MV支持硬解的。

片源是CHD版1.01和1.11,压缩码率15Mb,咱具体编码情况见下:

E:\AMV\[Anime&Game.MTV][新世紀エヴァンゲリオン][BDRIP][1920x1080_X264_AAC][残酷な天使のテ-ゼ][C59CAF3D].mp4
   General
      Complete name : E:\AMV\[Anime&Game.MTV][新世紀エヴァンゲリオン][BDRIP][1920x1080_X264_AAC][残酷な天使のテ-ゼ][C59CAF3D].mp4
      Format : MPEG-4
      Format profile : Base Media
      Codec ID : isom
      File size : 438 MiB
      Duration : 4mn 5s
      Overall bit rate : 15.0 Mbps
      Encoded date : UTC 2010-10-05 08:41:20
      Tagged date : UTC 2010-10-05 08:41:20
   Video #1
      Format : AVC
      Format/Info : Advanced Video Codec
      Format profile : High@L4.1
      Format settings, CABAC : Yes
      Format settings, ReFrames : 3 frames
      Codec ID : avc1
      Codec ID/Info : Advanced Video Coding
      Duration : 4mn 5s
      Bit rate mode : Variable
      Bit rate : 14.8 Mbps
      Maximum bit rate : 28.5 Mbps
      Width : 1 920 pixels
      Height : 1 080 pixels
      Display aspect ratio : 16/9
      Frame rate mode : Constant
      Frame rate : 29.970 fps
      Resolution : 24 bits
      Colorimetry : 4:2:0
      Scan type : Progressive
      Bits/(Pixel*Frame) : 0.238
      Stream size : 432 MiB (99%)
      Writing library : x264 core 68 r1183M f21daff
      Encoding settings : cabac=1 / ref=3 / deblock=1:-1:-2 / analyse=0x3:0x133 / me=tesa / subme=9 / psy_rd=1.0:0.0 / mixed_ref=1 / me_range=32 / chroma_me=1 / trellis=2 / 8x8dct=1 / cqm=0 / deadzone=21,11 / chroma_qp_offset=-2 / threads=3 / nr=0 / decimate=1 / mbaff=0 / bframes=3 / b_pyramid=0 / b_adapt=1 / b_bias=0 / direct=3 / wpredb=1 / keyint=250 / keyint_min=25 / scenecut=40 / rc=2pass / bitrate=14776 / ratetol=1.0 / qcomp=0.60 / qpmin=5 / qpmax=51 / qpstep=4 / cplxblur=20.0 / qblur=0.5 / vbv_maxrate=50000 / vbv_bufsize=50000 / ip_ratio=1.40 / pb_ratio=1.30 / aq=1:1.40
      Encoded date : UTC 2010-10-05 08:41:20
      Tagged date : UTC 2010-10-05 08:42:18
   Audio #2
      Format : AAC
      Format/Info : Advanced Audio Codec
      Format version : Version 4
      Format profile : LC
      Format settings, SBR : No
      Codec ID : 40
      Duration : 4mn 5s
      Bit rate mode : Variable
      Bit rate : 192 Kbps
      Maximum bit rate : 221 Kbps
      Channel(s) : 2 channels
      Channel positions : L R
      Sampling rate : 44.1 KHz
      Resolution : 16 bits
      Stream size : 5.60 MiB (1%)
      Encoded date : UTC 2010-10-05 08:42:18
      Tagged date : UTC 2010-10-05 08:42:18


  评论这张
 
阅读(400)| 评论(0)
推荐 转载

历史上的今天

评论

<#--最新日志,群博日志--> <#--推荐日志--> <#--引用记录--> <#--博主推荐--> <#--随机阅读--> <#--首页推荐--> <#--历史上的今天--> <#--被推荐日志--> <#--上一篇,下一篇--> <#-- 热度 --> <#-- 网易新闻广告 --> <#--右边模块结构--> <#--评论模块结构--> <#--引用模块结构--> <#--博主发起的投票-->
 
 
 
 
 
 
 
 
 
 
 
 
 
 

页脚

网易公司版权所有 ©1997-2017